Home » Forex, Trading, Stock » Stock Trading Strategies Technical Analysis Masterclass 2 (2020)

Stock Trading Strategies Technical Analysis Masterclass 2 (2020)

Stock Trading Strategies Technical Analysis Masterclass 2 (2020)
Original Price: $18,99
Yours FREE DOWNLOAD!!!
Author: n/a
Sale Page :_https://www.udemy.com/course/advance-trading-strategies/

31 Analysed Stock Market Trading Strategies for Trading Stocks , Options CFD & Forex by Technical Analysis + ASSIGNMENTS

What you’ll learn
Properly Plan and Know the Max Profit and Loss in Advance
Make Maximum Profit at Minimum Risk
Trade any Stock with a specific strategy that suits your trading concept
Use these Skills in any Stock, Index, Forex, Cryptocurrency etc
Use your Existing Technical Knowledge in the Most Efficient Way and Advanced way
4 Assignments with fully explained vedio lectures

Requirements
My Basic Course ‘Technical Analysis MasterClass: Trading With Technical Analysis’

Description
Gain the ability to Make Money in Stock Market, by learning different analysed & profitable trading strategies using Technical Analysis in the most Safest way!

Get answers from two Certified Technical Analyst to every single question you have related to the learning you do in this course including Divergence Strategies, Failing Divergence Strategy, Support & Resistance Strategies, Trend Strategies, Trend Line Strategies, Fibonacci Strategies, Most useful and Practical Strategies like Dip Trip Strategy, Heikin Ashi strategy and Everyone’s Favorite Moving Average Strategies and many more other topics.

Whether you are a Beginner, a regular investor or an Experienced market player, I know many people who even after working in the Industry for whole life could not determine the correct ways to trade. This course is for all of those who want to Get the Essence of Trading in Stock Market.

If you are like me, you are reading more now because you want to know for sure whether this course is worth taking before you invest your money and time in it. A Huge Number of Clients trust us and Invest their money on our Suggestions and now, We are teaching all of that on Udemy with more improvements and awesome video lectures.

Thank you very much for reading so much of the description for this course! The fact that you have spent some of your very valuable time here already reading this course leads me to believe that you will enjoy being a student in the course a lot! Find the “take this course” or “start free preview” button up on the page to give the course a try today!

If you want to learn more about what the course contains, here is a short list of questions to help you decide if you should take it followed by a deep list of the course lectures below. What you see is just the beginning of what the course includes because I am making new lectures every month for you! You will get to see screen capture live tutorials showing you everything you need to do to get started with Technical Analysis including information about all of the topics below

Divergence Strategies
Moving average Strategies
Support & Resistance Strategies
Chart Pattern Strategies
Heikin Ashi strategy
Fibonacci Strategies
Dip Trip Strategy
Trend Strategies
Trend line Strategies
and a lot more

Moreover you will get 4 fully explained Assignments about the Important topics of the course.

You get lifetime access to this course sharing everything you need to be a Successful Technical Analyst and Start Making Money in the Best way!

If you are still not sure, here are three questions you can use to make the final decision!

Do you want to Sit Back and Relax avoiding those Computer Screens and TVs all the Time?

Do you want to use your Time & knowledge in the Most Efficient Way and Still get More Profit?

Do you want to learn the Essence of Trading which people even after spending years don’t know?

If you answered yes to any of these questions, I would guess based on my experience after working for 9+ years in Investment and Finance Industry that you might enjoy this course. If for any reason I am wrong, you have 30 days to ask Udemy for a refund. I can guess the odds of you enjoying this course are very high! Thank you very much for reading all of this!

I hope to see you as a student in the course when we next meet!

Legal Disclaimer:
The Authors, or any Party Related to this Course or it’s Contents,
Will not be Responsible for Any kind of Loss to anyone in anyway, due to this course

Who this course is for:
Anyone who want to learn different Trading Strategies
Anyone who want to go More Deep in Technical Analysis
Anyone who want to learn Best ways to trade in Stock Market
Anyone who want better Returns for their money
Anyone who want to get the Ability to Save himself from Losses

General
Complete name : 3. Support & Resistance Strategy – 2.mp4
Format : MPEG-4
Format profile : Base Media / Version 2
Codec ID : mp42 (isom/iso2/avc1/mp41/mp42)
File size : 13.4 MiB
Duration : 3 min 37 s
Overall bit rate mode : Variable
Overall bit rate : 518 kb/s
Encoded date : UTC 2017-11-03 10:05:47
Tagged date : UTC 2017-11-03 10:05:47
Writing application : Lavf53.32.100
IsTruncated : Yes

Video
ID : 1
Format : AVC
Format/Info : Advanced Video Codec
Format profile : High@L3
Format settings : CABAC / 4 Ref Frames
Format settings, CABAC : Yes
Format settings, RefFrames : 4 frames
Codec ID : avc1
Codec ID/Info : Advanced Video Coding
Duration : 3 min 37 s
Bit rate : 322 kb/s
Width : 1 280 pixels
Height : 720 pixels
Display aspect ratio : 16:9
Frame rate mode : Constant
Frame rate : 30.000 FPS
Color space : YUV
Chroma subsampling : 4:2:0
Bit depth : 8 bits
Scan type : Progressive
Bits/(Pixel*Frame) : 0.012
Stream size : 8.42 MiB (63%)
Writing library : x264 core 136
Language : English
Encoded date : UTC 2017-11-03 10:05:47
Tagged date : UTC 2017-11-06 08:30:33

Audio
ID : 2
Format : AAC
Format/Info : Advanced Audio Codec
Format profile : LC
Codec ID : mp4a-40-2
Duration : 3 min 37 s
Bit rate mode : Variable
Bit rate : 192 kb/s
Channel(s) : 2 channels
Channel positions : Front: L R
Sampling rate : 48.0 kHz
Frame rate : 46.875 FPS (1024 SPF)
Compression mode : Lossy
Stream size : 4.91 MiB (37%)
Default : Yes
Alternate group : 1
Encoded date : UTC 2017-11-03 10:05:47
Tagged date : UTC 2017-11-06 08:30:33

Stock Trading Strategies Technical Analysis Masterclass 2 (2020) Contains: Video, PDF´s
Download from rapidgator.net
had5x.Stock.Trading.Strategies..Technical.Analysis.MasterClass.2.2020.part1.rar
had5x.Stock.Trading.Strategies..Technical.Analysis.MasterClass.2.2020.part2.rar
Download from Nitroflare
had5x.Stock.Trading.Strategies..Technical.Analysis.MasterClass.2.2020.part1.rar
had5x.Stock.Trading.Strategies..Technical.Analysis.MasterClass.2.2020.part2.rar
==> Download From Mega.: (FREE DOWNLOAD)
Download
***If link dead, please leave a message,or to send message to a ebusinesstores@gmail.com We will update immediately***

2 thoughts on “Stock Trading Strategies Technical Analysis Masterclass 2 (2020)

  1. CL says:

    Hi Admin,

    Mega pls!

    1. Kingofcourse Kingofcourse says:

      Done!

Leave a Reply

Your email address will not be published. Required fields are marked *

*
*

Join Us On Telegram